#TITLE:WHEELS OF FIRE;
#SUBTITLE:;
#ARTIST:DAVE RODGERS;
#TITLETRANSLIT:;
#SUBTITLETRANSLIT:;
#ARTISTTRANSLIT:;
#GENRE:;
#CREDIT:;
#BANNER:wheelsoffire.png;
#BACKGROUND:;
#LYRICSPATH:;
#CDTITLE:;
#MUSIC:wheelsoffire.mp3;
#OFFSET:-1.540;
#SAMPLESTART:38.644;
#SAMPLELENGTH:12.000;
#SELECTABLE:YES;
#BPMS:0.000=155.185;
#STOPS:0.000=0.040
;
#DELAYS:;
#TIMESIGNATURES:0.000=4=4
;
#BGCHANGES:2.000=wheelsoffire.png=1.000=0=0=1=====,
99999=-nosongbg-=1.000=0=0=0 // don't automatically add -songbackground-
;
#KEYSOUNDS:;
#ATTACKS:;
// cache tags:
#FIRSTBEAT:16.000;
#LASTBEAT:205.000;
#SONGFILENAME:/Songs/ParaPara/Wheels of Fire/wheelsoffire.sm;
#HASMUSIC:1;
#HASBANNER:0;
#MUSICLENGTH:89.317;
// end cache tags

//---------------para-single - WHHELS----------------
#NOTES:
     para-single:
     WHHELS:
     Edit:
     1:
     0.006,0.006,0.000,0.011,0.000,3.000,0.000,1.000,0.000,0.000,0.000,0.000,-1.000,-1.000,0.006,0.006,0.000,0.011,0.000,3.000,0.000,1.000,0.000,0.000,0.000,0.000,-1.000,-1.000:
00000
00000
00000
00000
,
01000
00000
00000
00000
,
00000
00000
00000
00000
,
00020
00030
00100
00000
;

//---------------para-single - Blank----------------
#NOTES:
     para-single:
     Blank:
     Edit:
     6:
     0.307,0.459,0.045,0.157,0.123,174.000,4.000,14.000,0.000,0.000,0.000,0.000,-1.000,-1.000,0.307,0.459,0.045,0.157,0.123,174.000,4.000,14.000,0.000,0.000,0.000,0.000,-1.000,-1.000:
00000
00000
00000
00000
,
00000
00000
00000
00000
,
00000
00000
00000
00000
,
00000
00000
00000
00000
,
01000
10000
01000
10000
01000
00000
00010
00000
,
00001
00010
00001
00010
00001
00000
01000
00000
,
00010
00010
00000
00000
,
00010
00010
00000
00000
,
10000
01000
10000
01000
10000
00000
00010
00000
,
00001
00010
00001
00010
00001
00000
01000
00000
,
00010
00010
00000
00000
,
00010
00010
00000
00000
,
01000
00100
00010
00001
00000
00000
00010
00000
00000
00001
00000
00000
,
00010
00100
01000
10000
00000
00000
01000
00000
00000
10000
00000
00000
,
01000
00100
00010
00001
,
00010
00100
01000
10000
,
01000
00100
00010
00001
00000
00000
00010
00000
00000
00001
00000
00000
,
00010
00100
01000
10000
00000
00000
01000
00000
00000
10000
00000
00000
,
01000
00100
00010
00001
,
00010
00100
01000
10000
,
01000
00010
00010
01000
,
01000
00010
00010
01000
,
01000
00100
00020
00030
,
00010
00100
02000
03000
,
01000
00010
00010
01000
,
01000
00010
00010
01000
,
01000
00100
00020
00030
,
00010
00100
02000
03000
,
00000
00020
00000
02030
,
00010
00000
00010
00000
,
03010
00000
00000
00000
,
00000
00000
00000
00000
00000
00000
00000
00000
00000
00000
00000
00000
00000
00000
00000
00000
00000
00000
00000
00000
00010
00000
00000
00000
00100
00000
00000
00000
00000
00000
00000
00000
00000
01000
00000
00000
00000
00000
00000
00000
00000
00000
00000
00000
00000
00000
00000
00000
,
10000
01000
00000
00100
10000
00010
01000
00000
00101
00000
00010
00000
00000
00000
00000
00000
00000
00000
00000
00000
00000
00000
00000
00000
00001
00000
00000
00000
00010
00000
00000
00000
,
00100
02020
00000
03030
,
00000
00020
00000
00000
,
00000
00000
00000
00030
,
00000
00020
00000
02030
,
00010
00000
00010
00000
,
03010
00000
00000
00000
,
00000
00000
00000
00000
00000
00000
00000
00000
00000
00000
00000
00000
00000
00000
00000
00000
00000
00000
00000
00000
00010
00000
00000
00000
00100
00000
00000
00000
00000
00000
00000
00000
00000
01000
00000
00000
00000
00000
00000
00000
00000
00000
00000
00000
00000
00000
00000
00000
,
10000
01000
00000
00100
10000
00010
01000
00000
00101
00000
00010
00000
00000
00000
00000
00000
00000
00000
00000
00000
00000
00000
00000
00000
00001
00000
00000
00000
00010
00000
00000
00000
,
00100
02020
00000
03030
,
00000
00020
00000
00000
,
00000
00000
00000
00030
,
01000
10000
01000
10000
01000
00000
00010
00000
,
00001
00010
00001
00010
00001
00000
01000
00000
,
00010
00010
00000
00000
,
00010
00010
00000
00000
,
10000
01000
10000
01000
10000
00000
00010
00000
,
00001
00010
00001
00010
00001
00000
01000
00000
,
00010
00010
00000
00000
,
00010
00010
00000
00000
;

//---------------para-single - Blank----------------
#NOTES:
     para-single:
     Blank:
     Beginner:
     6:
     0.259,0.459,0.045,0.246,0.101,136.000,4.000,22.000,0.000,0.000,0.000,0.000,-1.000,-1.000,0.259,0.459,0.045,0.246,0.101,136.000,4.000,22.000,0.000,0.000,0.000,0.000,-1.000,-1.000:
00000
00000
00000
00000
,
00000
00000
00000
00000
,
00000
00000
00000
00000
,
00000
00000
00000
00000
,
20000
00000
00000
30000
00000
00000
00010
00000
,
00002
00000
00003
01000
,
00010
00010
00000
00000
,
00010
00010
00000
00000
,
20000
00000
00000
30000
00000
00000
00010
00000
,
00002
00000
00003
01000
,
00010
00010
00000
00000
,
00010
00010
00000
00000
,
01000
00100
00010
00001
00000
00000
00010
00000
00000
00001
00000
00000
,
00010
00100
01000
10000
00000
00000
01000
00000
00000
10000
00000
00000
,
01000
00100
00010
00000
,
00010
00100
01000
00000
,
01000
00100
00010
00001
00000
00000
00010
00000
00000
00001
00000
00000
,
00010
00100
01000
10000
00000
00000
01000
00000
00000
10000
00000
00000
,
01000
00100
00010
00000
,
00010
00100
01000
00000
,
01000
00010
00010
01000
,
01000
00010
00010
01000
,
01000
00100
00020
00030
,
00010
00100
02000
03000
,
01000
00010
00010
01000
,
01000
00010
00010
01000
,
01000
00100
00020
00030
,
00010
00100
02000
03000
,
00000
00020
00000
02030
,
00010
00000
00010
00000
,
03010
00000
00000
00000
,
00000
00000
00010
01000
,
10000
01000
00000
00100
10000
00010
01000
00000
00101
00000
00010
00000
00000
00000
00000
00000
00000
00000
00000
00000
00000
00000
00000
00000
00001
00000
00000
00000
00010
00000
00000
00000
,
00100
02020
00000
03030
,
00000
00020
00000
00000
,
00000
00000
00000
00030
,
00000
00020
00000
02030
,
00010
00000
00010
00000
,
03010
00000
00000
00000
,
00000
00000
00010
01000
,
10000
01000
00000
00100
10000
00010
01000
00000
00101
00000
00010
00000
00000
00000
00000
00000
00000
00000
00000
00000
00000
00000
00000
00000
00001
00000
00000
00000
00010
00000
00000
00000
,
00100
02020
00000
03030
,
00000
00020
00000
00000
,
00000
00000
00000
00030
,
20000
00000
00000
30000
00000
00000
00010
00000
,
00002
00000
00003
01000
,
00010
00010
00000
00000
,
00010
00010
00000
00000
,
20000
00000
00000
30000
00000
00000
00010
00000
,
00002
00000
00003
01000
,
00010
00010
00000
00000
,
00010
00010
00000
00000
;
